TRACKLISTINGS
HEY, WELCOME TO THE "TRACKLISTINGS" COMMUNITY !

For more than 4 years, we are the biggest database concerning EDM livesets, DJ-sets, podcasts & other mixes.
If you want access to and/or help expanding this database, please register. It's free and takes only 2 minutes.

Some basic rules:
- Use English only and be friendly to the other members.
- Post every set/mix in a new topic and at the correct subforum, as following: "YEAR.MONTH.DAY - ARTIST - NAME OF THE SET/MIX" (in upper case).
- You are allowed to promote anything related to EDM at the "Promoting Section", but spam will not be tolerated.
- You are allowed to post your own tracks, remixes, bootlegs and mixes at the "Your Own Productions" and "Member Mixes & Podcasts" sections.
- Posting downloadlinks of copyrighted material, such as songs, EP's, albums, ... is strictly forbidden !

If you have a question, do not hesitate to send a PM to the Greg (Admin) or the TL-admins.

Thanks, Greg (Admin).
TRACKLISTINGS

LIVESETS (ACID, DUBSTEP, EBM, ELECTRO, HOUSE, MINIMAL, TECHNO, TRANCE...) & TRACKLISTINGS
 
HomePortalRegisterLog in
TRACKLISTINGS
2013.12.14 - ARMIN VAN BUUREN @ B96 JINGLE BASH 2013 CHICAGO (USA)  Tl1310
Index
#
A
B
C
D
E
F
G
H
I
J
K
L
M
N
O
P
RST
UVWYZ
Social Widget
Facebook Fan Page

Navigation
Search
 
 

Display results as :
 
Rechercher Advanced Search
Partners & Supporters

Share
 

 2013.12.14 - ARMIN VAN BUUREN @ B96 JINGLE BASH 2013 CHICAGO (USA)

Go down 
AuthorMessage
razorator
Ripper
razorator

Number of posts : 1942
Location : Czech
Registration date : 2010-08-21

2013.12.14 - ARMIN VAN BUUREN @ B96 JINGLE BASH 2013 CHICAGO (USA)  Empty
PostSubject: 2013.12.14 - ARMIN VAN BUUREN @ B96 JINGLE BASH 2013 CHICAGO (USA)    2013.12.14 - ARMIN VAN BUUREN @ B96 JINGLE BASH 2013 CHICAGO (USA)  Icon_minitimeSun Dec 15, 2013 7:55 am

[You must be registered and logged in to see this image.]



Armin van Buuren

[You must be registered and logged in to see this link.] by [You must be registered and logged in to see this link.] on [You must be registered and logged in to see this link.]


[You must be registered and logged in to see this link.]
[You must be registered and logged in to see this link.]
[You must be registered and logged in to see this link.]
[You must be registered and logged in to see this link.]
[You must be registered and logged in to see this link.]

_________________


No more rip&upload from me. All that people who can only rename and re-upload my work, Rip it yourself.
Bye
Back to top Go down
razorator
Ripper
razorator

Number of posts : 1942
Location : Czech
Registration date : 2010-08-21

2013.12.14 - ARMIN VAN BUUREN @ B96 JINGLE BASH 2013 CHICAGO (USA)  Empty
PostSubject: Re: 2013.12.14 - ARMIN VAN BUUREN @ B96 JINGLE BASH 2013 CHICAGO (USA)    2013.12.14 - ARMIN VAN BUUREN @ B96 JINGLE BASH 2013 CHICAGO (USA)  Icon_minitimeSun Dec 15, 2013 4:30 pm

01. Armin van Buuren feat. Miri Ben-Ari - Intense (Andrew Rayel Intro Remix) 
02. Armin van Buuren feat. Lauren Evans - Alone 
03. Cosmic Gate & Mark Sixma vs. Fatboy Slim vs. Sultan & Ned Shepard - Crushed vs. Eat Sleep Rave Repeat vs. No Good (Armin van Buuren Mashup) 
04. Armin van Buuren feat. Trevor Guthrie - This Is What It Feels Like (W&W Remix) 
05. Armin van Buuren - Ping Pong (Working Title) 
06. Faithless - Insomnia (Andrew Rayel Remix)

[You must be registered and logged in to see this link.]

Download
Untuched video 720p

[You must be registered and logged in to see this link.]
[You must be registered and logged in to see this link.]
[You must be registered and logged in to see this link.]


Quote :
General
ID                                       : 1 (0x1)
Complete name                            : C:\Armin_van_Buuren_-_Live_at_B96_Pepsi_Jingle_Bash_Allstate_Arena_Chicago _14-12-2013-Razorator.ts
Format                                   : MPEG-TS
File size                                : 536 MiB
Duration                                 : 28mn 9s
Overall bit rate mode                    : Variable
Overall bit rate                         : 2 661 Kbps

Video
ID                                       : 256 (0x100)
Menu ID                                  : 1 (0x1)
Format                                   : AVC
Format/Info                              : Advanced Video Codec
Format profile                           : Main@L3.1
Format settings, CABAC                   : Yes
Format settings, ReFrames                : 1 frame
Codec ID                                 : 27
Duration                                 : 28mn 6s
Bit rate                                 : 2 276 Kbps
Width                                    : 1 280 pixels
Height                                   : 720 pixels
Display aspect ratio                     : 16:9
Frame rate mode                          : Variable
Color space                              : YUV
Chroma subsampling                       : 4:2:0
Bit depth                                : 8 bits
Scan type                                : Progressive
Stream size                              : 458 MiB (85%)

Audio
ID                                       : 257 (0x101)
Menu ID                                  : 1 (0x1)
Format                                   : AAC
Format/Info                              : Advanced Audio Codec
Format version                           : Version 4
Format profile                           : LC
Muxing mode                              : ADTS
Codec ID                                 : 15
Duration                                 : 28mn 9s
Bit rate mode                            : Variable
Bit rate                                 : 251 Kbps
Channel(s)                               : 2 channels
Channel positions                        : Front: L R
Sampling rate                            : 48.0 KHz
Compression mode                         : Lossy
Delay relative to video                  : -86ms
Stream size                              : 50.6 MiB (9%)

Menu
ID                                       : 4095 (0xFFF)
Menu ID                                  : 1 (0x1)
Duration                                 : 28mn 9s
List                                     : 256 (0x100) (AVC) / 257 (0x101) (AAC)
Service name                             : Google
Service provider                         : FFmpeg
Service type                             : digital television


_________________


No more rip&upload from me. All that people who can only rename and re-upload my work, Rip it yourself.
Bye
Back to top Go down
DubShakerz
Elite Member
DubShakerz

Number of posts : 3129
Age : 29
Location : Budapest
Registration date : 2010-10-23

2013.12.14 - ARMIN VAN BUUREN @ B96 JINGLE BASH 2013 CHICAGO (USA)  Empty
PostSubject: Re: 2013.12.14 - ARMIN VAN BUUREN @ B96 JINGLE BASH 2013 CHICAGO (USA)    2013.12.14 - ARMIN VAN BUUREN @ B96 JINGLE BASH 2013 CHICAGO (USA)  Icon_minitimeMon Dec 16, 2013 3:01 pm

[You must be registered and logged in to see this link.] by [You must be registered and logged in to see this link.] on [You must be registered and logged in to see this link.]



[You must be registered and logged in to see this link.]
[You must be registered and logged in to see this link.]
Back to top Go down
Sponsored content




2013.12.14 - ARMIN VAN BUUREN @ B96 JINGLE BASH 2013 CHICAGO (USA)  Empty
PostSubject: Re: 2013.12.14 - ARMIN VAN BUUREN @ B96 JINGLE BASH 2013 CHICAGO (USA)    2013.12.14 - ARMIN VAN BUUREN @ B96 JINGLE BASH 2013 CHICAGO (USA)  Icon_minitime

Back to top Go down
 
2013.12.14 - ARMIN VAN BUUREN @ B96 JINGLE BASH 2013 CHICAGO (USA)
Back to top 
Page 1 of 1

Permissions in this forum:You cannot reply to topics in this forum
TRACKLISTINGS :: 0-A :: ARMIN VAN BUUREN-
Jump to: